Metallore online

Вступить в онлайн сообщество

Объявление от Pariah: Обьявлен ежегодный конкурс ИНВАЙТОВ!!! С призами и дополнительными поощрениями

Последние сообщения

Metallore online

От: Morn Gail
29-11-2016 18:18

Откуда приходим.

От: Pariah
03-11-2016 09:42

Откуда приходим.

От: formaht
02-11-2016 20:28

Social tracker:



Статистика раздачи [Обновить пиров]
Размер:  943 MB   |    Зарегистрирован:  2 месяца 9 дней   |    Скачан:  1 раз
Сидов:  2  [  0 KB/s  ]   Личеров:  9  [  0 KB/s  ]  
 
   
 
 
 

[Цитировать]

The Letter Black - Дискография-
Страна: USA
Жанр: Alternative Rock
Аудио кодек: ALAC (image + .cue)
Битрейт аудио: lossless
Продолжительность: 02:03:09
Описание:Музыкальная группа из США, играющая христианский рок. В состав группы входят Сара Энтони, её муж Марк Энтони, Джастин Браун, и Мэтт Бил.
-

Трэклист:

2009 - Breaking The Silence (EP)

01. Moving On
02. Hanging On By A Thread
03. Best Of Me
04. Collapse
05. Away From Me
06. Perfect Exact

Лог-отчёт

Audio Copy V0.99 prebeta 5 from 4. May 2009
EAC extraction logfile from 29. October 2009, 12:33
The Letter Black / Breaking The Silence EP
Used drive : _NEC DVD_RW ND-1300A Adapter: 0 ID: 0
Read mode : Secure
Utilize accurate stream : Yes
Defeat audio cache : Yes
Make use of C2 pointers : No
Read offset correction : 48
Overread into Lead-In and Lead-Out : No
Fill up missing offset samples with silence : Yes
Delete leading and trailing silent blocks : No
Null samples used in CRC calculations : Yes
Used interface : Installed external ASPI interface
Gap handling : Appended to previous track
Used output format : User Defined Encoder
Selected bitrate : 768 kBit/s
Quality : High
Add ID3 tag : No
Command line compressor : G:\Program Files\Exact Audio Copy\FLAC\FLAC.EXE
Additional command line options : -V -5 -T "artist=%a" -T "title=%t" -T "album=%g" -T "date=%y"
-T "tracknumber=%n" -T "genre=%m" %s
TOC of the extracted CD
Track | Start | Length | Start sector | End sector
---------------------------------------------------------
1 | 0:00.00 | 3:37.50 | 0 | 16324
2 | 3:37.50 | 3:01.52 | 16325 | 29951
3 | 6:39.27 | 3:48.21 | 29952 | 47072
4 | 10:27.48 | 3:58.72 | 47073 | 64994
5 | 14:26.45 | 3:37.27 | 64995 | 81296
6 | 18:03.72 | 4:03.22 | 81297 | 99543
Track 1
Filename D:\The Letter Black - 2009 - Breaking The Silence EP\01 - Moving On.wav
Pre-gap length 0:00:02.00
Peak level 99.8 %
Track quality 100.0 %
Test CRC DCAE11DF
Copy CRC DCAE11DF
Track not present in AccurateRip database
Copy OK
Track 2
Filename D:\The Letter Black - 2009 - Breaking The Silence EP\02 - Hanging On By A Thread.wav
Peak level 99.8 %
Track quality 100.0 %
Test CRC 5633CA4D
Copy CRC 5633CA4D
Track not present in AccurateRip database
Copy OK
Track 3
Filename D:\The Letter Black - 2009 - Breaking The Silence EP\03 - Best Of Me.wav
Peak level 99.8 %
Track quality 100.0 %
Test CRC 352141E5
Copy CRC 352141E5
Track not present in AccurateRip database
Copy OK
Track 4
Filename D:\The Letter Black - 2009 - Breaking The Silence EP\04 - Collapse.wav
Peak level 99.8 %
Track quality 100.0 %
Test CRC C3E82133
Copy CRC C3E82133
Track not present in AccurateRip database
Copy OK
Track 5
Filename D:\The Letter Black - 2009 - Breaking The Silence EP\05 - Away From Me.wav
Peak level 99.7 %
Track quality 100.0 %
Test CRC F83450CA
Copy CRC F83450CA
Track not present in AccurateRip database
Copy OK
Track 6
Filename D:\The Letter Black - 2009 - Breaking The Silence EP\06 - Perfect.wav
Peak level 99.8 %
Track quality 100.0 %
Test CRC 7ADEEC73
Copy CRC 7ADEEC73
Track not present in AccurateRip database
Copy OK
None of the tracks are present in the AccurateRip database
No errors occurred
End of status report
-

2010 - Hanging On By A Thread

01. Fire With Fire
02. Invisible
03. Hanging On By A Thread
04. Believe
05. There'll Come A Day
06. My Disease
07. I'm Just Fine
08. Best Of Me
09. All I Wan't
10. Moving On
11. More To This
12. Care Too Much
13. Wounded

Лог-отчёт

Exact Audio Copy V0.99 prebeta 5 from 4. May 2009
EAC extraction logfile from 3. May 2010, 20:41
The Letter Black / Hanging On By A Thread
Used drive : ATAPI iHAS124 Y Adapter: 1 ID: 1
Read mode : Secure
Utilize accurate stream : Yes
Defeat audio cache : Yes
Make use of C2 pointers : No
Read offset correction : 48
Overread into Lead-In and Lead-Out : No
Fill up missing offset samples with silence : Yes
Delete leading and trailing silent blocks : No
Null samples used in CRC calculations : Yes
Used interface : Native Win32 interface for Win NT & 2000
Gap handling : Appended to previous track
Used output format : User Defined Encoder
Selected bitrate : 768 kBit/s
Quality : High
Add ID3 tag : No
Command line compressor : C:\Program Files (x86)\Exact Audio Copy\Flac\flac.exe
Additional command line options : -6 -V -T "ARTIST=%a" -T "TITLE=%t" -T "ALBUM=%g" -T "DATE=%y"
-T "TRACKNUMBER=%n" -T "GENRE=%m" -T "COMMENT=%e" %s -o %d
TOC of the extracted CD
Track | Start | Length | Start sector | End sector
---------------------------------------------------------
1 | 0:00.00 | 3:05.58 | 0 | 13932
2 | 3:05.58 | 3:20.22 | 13933 | 28954
3 | 6:26.05 | 3:03.11 | 28955 | 42690
4 | 9:29.16 | 4:01.37 | 42691 | 60802
5 | 13:30.53 | 3:23.16 | 60803 | 76043
6 | 16:53.69 | 2:55.57 | 76044 | 89225
7 | 19:49.51 | 2:50.34 | 89226 | 102009
8 | 22:40.10 | 3:45.51 | 102010 | 118935
9 | 26:25.61 | 3:20.60 | 118936 | 133995
10 | 29:46.46 | 3:38.69 | 133996 | 150414
11 | 33:25.40 | 4:21.05 | 150415 | 169994
12 | 37:46.45 | 3:21.68 | 169995 | 185137
13 | 41:08.38 | 3:25.25 | 185138 | 200537
Track 1
Filename C:\To upload\The Letter Black - 2010 - Hanging On By A Thread\01 - Fire With Fire.wav
Pre-gap length 0:00:02.00
Peak level 99.8 %
Track quality 100.0 %
Test CRC A3EFCC67
Copy CRC A3EFCC67
Track not present in AccurateRip database
Copy OK
Track 2
Filename C:\To upload\The Letter Black - 2010 - Hanging On By A Thread\02 - Invisible.wav
Peak level 99.7 %
Track quality 100.0 %
Test CRC D7430D37
Copy CRC D7430D37
Track not present in AccurateRip database
Copy OK
Track 3
Filename C:\To upload\The Letter Black - 2010 - Hanging On By A Thread\03 - Hanging On By A Thread.wav
Peak level 99.8 %
Track quality 100.0 %
Test CRC 0CEA2B6A
Copy CRC 0CEA2B6A
Track not present in AccurateRip database
Copy OK
Track 4
Filename C:\To upload\The Letter Black - 2010 - Hanging On By A Thread\04 - Believe.wav
Peak level 99.8 %
Track quality 100.0 %
Test CRC 5A3E4D62
Copy CRC 5A3E4D62
Track not present in AccurateRip database
Copy OK
Track 5
Filename C:\To upload\The Letter Black - 2010 - Hanging On By A Thread\05 - There'll Come A Day.wav
Peak level 99.7 %
Track quality 99.9 %
Test CRC 7E0E763B
Copy CRC 7E0E763B
Track not present in AccurateRip database
Copy OK
Track 6
Filename C:\To upload\The Letter Black - 2010 - Hanging On By A Thread\06 - My Disease.wav
Peak level 99.7 %
Track quality 100.0 %
Test CRC ACC3866F
Copy CRC ACC3866F
Track not present in AccurateRip database
Copy OK
Track 7
Filename C:\To upload\The Letter Black - 2010 - Hanging On By A Thread\07 - I'm Just Fine.wav
Peak level 99.8 %
Track quality 100.0 %
Test CRC 1324FFC5
Copy CRC 1324FFC5
Track not present in AccurateRip database
Copy OK
Track 8
Filename C:\To upload\The Letter Black - 2010 - Hanging On By A Thread\08 - Best Of Me.wav
Peak level 99.7 %
Track quality 100.0 %
Test CRC 06604CA4
Copy CRC 06604CA4
Track not present in AccurateRip database
Copy OK
Track 9
Filename C:\To upload\The Letter Black - 2010 - Hanging On By A Thread\09 - All I Wan't.wav
Peak level 99.8 %
Track quality 100.0 %
Test CRC 7D56D529
Copy CRC 7D56D529
Track not present in AccurateRip database
Copy OK
Track 10
Filename C:\To upload\The Letter Black - 2010 - Hanging On By A Thread\10 - Moving On.wav
Peak level 99.8 %
Track quality 100.0 %
Test CRC 0B3015C7
Copy CRC 0B3015C7
Track not present in AccurateRip database
Copy OK
Track 11
Filename C:\To upload\The Letter Black - 2010 - Hanging On By A Thread\11 - More To This.wav
Peak level 99.8 %
Track quality 100.0 %
Test CRC C1CCC159
Copy CRC C1CCC159
Track not present in AccurateRip database
Copy OK
Track 12
Filename C:\To upload\The Letter Black - 2010 - Hanging On By A Thread\12 - Care Too Much.wav
Peak level 99.8 %
Track quality 99.9 %
Test CRC 96C074B9
Copy CRC 96C074B9
Track not present in AccurateRip database
Copy OK
Track 13
Filename C:\To upload\The Letter Black - 2010 - Hanging On By A Thread\13 - Wounded.wav
Peak level 99.8 %
Track quality 100.0 %
Test CRC ADD8F952
Copy CRC ADD8F952
Track not present in AccurateRip database
Copy OK
None of the tracks are present in the AccurateRip database
No errors occurred
End of status report
-

2011 - Hanging On By A Thread Sessions, Vol. 2 (EP) (WEB)

01. Hanging On By A Thread
02. Moving On (Mike D's Knox-Vegas Remix)
03. Better Luck Next Time
04. Somebody To Love
05. Away From Me

Лог-отчёт

AUDIOCHECKER v2.0 beta (build 457) - by Dester - opdester@freemail.hu
~~~~~~~~~~~~~~~~~~~~~~~~~~~~~~~~~~
01 -===- D:\FLAC music\Hanging On By A Thread Sessions, Vol. 2\01-Hanging On By A Thread.flac
Extracted successfully
Conclusion: this track is CDDA with probability 100%
Tempfile successfully deleted.
02 -===- D:\FLAC music\Hanging On By A Thread Sessions, Vol. 2\02-Moving On [Mike D's Knox-Vegas Remix].flac
Extracted successfully
Conclusion: this track is CDDA with probability 100%
Tempfile successfully deleted.
03 -===- D:\FLAC music\Hanging On By A Thread Sessions, Vol. 2\03-Better Luck Next Time.flac
Extracted successfully
Conclusion: this track is CDDA with probability 100%
Tempfile successfully deleted.
04 -===- D:\FLAC music\Hanging On By A Thread Sessions, Vol. 2\04-Somebody To Love.flac
Extracted successfully
Conclusion: this track is CDDA with probability 99%
Tempfile successfully deleted.
05 -===- D:\FLAC music\Hanging On By A Thread Sessions, Vol. 2\05-Away From Me.flac
Extracted successfully
Conclusion: this track is CDDA with probability 100%
Tempfile successfully deleted.
-

2013 - Rebuild

01. Sick Charade
02. Break Out
03. Pain Killer
04. Found
05. Up From The Ashes
06. Outside Looking In
07. Rebuild
08. Smothering Walls
09. Shattered
10. Devil On Your Back
11. Branded

Лог-отчёт

Exact Audio Copy V1.0 beta 3 from 29. August 2011
EAC extraction logfile from 26. November 2013, 21:10
The Letter Black / Rebuild
Used drive : ATAPI iHAS120 6 Adapter: 0 ID: 0
Read mode : Secure
Utilize accurate stream : Yes
Defeat audio cache : Yes
Make use of C2 pointers : No
Read offset correction : 6
Overread into Lead-In and Lead-Out : No
Fill up missing offset samples with silence : Yes
Delete leading and trailing silent blocks : No
Null samples used in CRC calculations : Yes
Used interface : Native Win32 interface for Win NT & 2000
Gap handling : Appended to previous track
Used output format : User Defined Encoder
Selected bitrate : 1024 kBit/s
Quality : High
Add ID3 tag : No
Command line compressor : C:\Program Files (x86)\Exact Audio Copy\Flac\flac.exe
Additional command line options : -8 -V -T "ARTIST=%artist%" -T "TITLE=%title%" -T "ALBUM=%albumtitle%" -T "DATE=%year%" -T "TRACKNUMBER=%tracknr%" -T "GENRE=%genre%" -T "PERFORMER=%albuminterpret%" -T "COMPOSER=%composer%" %haslyrics%--tag-from-file=LYRICS="%lyricsfile%"%haslyrics% -T "ALBUMARTIST=%albumartist%" -T "DISCNUMBER=%cdnumber%" -T "TOTALDISCS=%totalcds%" -T "TOTALTRACKS=%numtracks%" -T "COMMENT=%comment%" %source% -o %dest%
TOC of the extracted CD
Track | Start | Length | Start sector | End sector
---------------------------------------------------------
1 | 0:00.00 | 3:13.57 | 0 | 14531
2 | 3:13.57 | 3:26.67 | 14532 | 30048
3 | 6:40.49 | 3:34.31 | 30049 | 46129
4 | 10:15.05 | 4:07.52 | 46130 | 64706
5 | 14:22.57 | 3:57.55 | 64707 | 82536
6 | 18:20.37 | 4:07.05 | 82537 | 101066
7 | 22:27.42 | 3:43.18 | 101067 | 117809
8 | 26:10.60 | 3:07.67 | 117810 | 131901
9 | 29:18.52 | 3:14.30 | 131902 | 146481
10 | 32:33.07 | 3:20.20 | 146482 | 161501
11 | 35:53.27 | 3:18.13 | 161502 | 176364
Track 1
Filename C:\Users\justsaymint\Desktop\The Letter Black - Rebuild (2013) [FLAC]\01 Sick Charade.wav
Pre-gap length 0:00:02.00
Peak level 94.4 %
Extraction speed 4.8 X
Track quality 100.0 %
Test CRC EB18E26D
Copy CRC EB18E26D
Track not present in AccurateRip database
Copy OK
Track 2
Filename C:\Users\justsaymint\Desktop\The Letter Black - Rebuild (2013) [FLAC]\02 Break Out.wav
Peak level 94.4 %
Extraction speed 5.4 X
Track quality 100.0 %
Test CRC B6005B9B
Copy CRC B6005B9B
Track not present in AccurateRip database
Copy OK
Track 3
Filename C:\Users\justsaymint\Desktop\The Letter Black - Rebuild (2013) [FLAC]\03 Pain Killer.wav
Peak level 94.4 %
Extraction speed 5.8 X
Track quality 100.0 %
Test CRC 5140E377
Copy CRC 5140E377
Track not present in AccurateRip database
Copy OK
Track 4
Filename C:\Users\justsaymint\Desktop\The Letter Black - Rebuild (2013) [FLAC]\04 Found.wav
Peak level 94.4 %
Extraction speed 6.4 X
Track quality 100.0 %
Test CRC A57F62D9
Copy CRC A57F62D9
Track not present in AccurateRip database
Copy OK
Track 5
Filename C:\Users\justsaymint\Desktop\The Letter Black - Rebuild (2013) [FLAC]\05 Up From The Ashes.wav
Peak level 94.4 %
Extraction speed 6.1 X
Track quality 99.9 %
Test CRC AA5799C3
Copy CRC AA5799C3
Track not present in AccurateRip database
Copy OK
Track 6
Filename C:\Users\justsaymint\Desktop\The Letter Black - Rebuild (2013) [FLAC]\06 Outside Looking In.wav
Peak level 94.4 %
Extraction speed 7.2 X
Track quality 100.0 %
Test CRC 4D196399
Copy CRC 4D196399
Track not present in AccurateRip database
Copy OK
Track 7
Filename C:\Users\justsaymint\Desktop\The Letter Black - Rebuild (2013) [FLAC]\07 Rebuild.wav
Peak level 94.4 %
Extraction speed 7.6 X
Track quality 100.0 %
Test CRC A35F21B1
Copy CRC A35F21B1
Track not present in AccurateRip database
Copy OK
Track 8
Filename C:\Users\justsaymint\Desktop\The Letter Black - Rebuild (2013) [FLAC]\08 Smothering Walls.wav
Peak level 94.4 %
Extraction speed 6.5 X
Track quality 99.9 %
Test CRC 27B0815D
Copy CRC 27B0815D
Track not present in AccurateRip database
Copy OK
Track 9
Filename C:\Users\justsaymint\Desktop\The Letter Black - Rebuild (2013) [FLAC]\09 Shattered.wav
Peak level 94.4 %
Extraction speed 7.9 X
Track quality 100.0 %
Test CRC 684D0953
Copy CRC 684D0953
Track not present in AccurateRip database
Copy OK
Track 10
Filename C:\Users\justsaymint\Desktop\The Letter Black - Rebuild (2013) [FLAC]\10 Devil On Your Back.wav
Peak level 94.4 %
Extraction speed 8.1 X
Track quality 100.0 %
Test CRC DBC26587
Copy CRC DBC26587
Track not present in AccurateRip database
Copy OK
Track 11
Filename C:\Users\justsaymint\Desktop\The Letter Black - Rebuild (2013) [FLAC]\11 Branded.wav
Peak level 94.4 %
Extraction speed 8.4 X
Track quality 100.0 %
Test CRC F4F9CE2A
Copy CRC F4F9CE2A
Track not present in AccurateRip database
Copy OK
None of the tracks are present in the AccurateRip database
No errors occurred
End of status report
---- CUETools DB Plugin V2.1.3
[CTDB TOCID: earBgVsTM_59NifOudSuBW7oNfM-] database access error: The operation has timed out
==== Log checksum 790631B813239D681080D5CA080298B4DC176E986E28D3641D91F8E54C047269 ====
-

Для ознакомления

[ALAC] The Letter Black.torrent 
Торрент: Зарегистрирован   [ 26-09-2016 03:45 ] · D999629D00FBBCD55FC480A25C2FEFD6957FD0EC

Скачать .torrent

Скачать

22 KB

Статус: проверено
Скачан: 1 раз
Размер: 943 MB
terms.php


Показать сообщения:    

Текущее время: 05-Дек 18:59

Часовой пояс: UTC + 4


Вы не можете начинать темы
Вы не можете отвечать на сообщения
Вы не можете редактировать свои сообщения
Вы не можете удалять свои сообщения
Вы не можете голосовать в опросах
Вы не можете прикреплять файлы к сообщениям
Вы можете скачивать файлы

Сайт не предоставляет электронные версии произведений, а занимается лишь коллекционированием и каталогизацией ссылок, присылаемых и публикуемых на форуме нашими читателями. Если вы являетесь правообладателем какого-либо представленного материала и не желаете, чтобы ссылка на него находилась в нашем каталоге, свяжитесь с нами, и мы незамедлительно удалим ее. Файлы для обмена на трекере предоставлены пользователями сайта, и администрация не несет ответственности за их содержание. Просьба не заливать файлы, защищенные авторскими правами, а также файлы нелегального содержания!