Metallore online

Вступить в онлайн сообщество

Объявление от Pariah: Обьявлен ежегодный конкурс ИНВАЙТОВ!!! С призами и дополнительными поощрениями

Последние сообщения

Metallore online

От: Morn Gail
29-11-2016 18:18

Откуда приходим.

От: Pariah
03-11-2016 09:42

Откуда приходим.

От: formaht
02-11-2016 20:28

Social tracker:



Статистика раздачи [Обновить пиров]
Размер:  562 MB   |    Зарегистрирован:  4 года 8 месяцев   |    Скачан:  18 раз
Сидов:  1  [  0 KB/s  ]  
 
   
 
 
 

[Цитировать]

Lacuna Coil - Live at Graspop-- Год: 2009
Страна: Италия
Жанр: Gothic Metal/Rock (early), Alternative Rock (later)
Продолжительность: 00:58:32
Описание:
Снято на 1 проф. камеру, звук записан с пульта.
Треклист:
01 - To The Edge
02 - Fragments of Faith
03 - Swamped
04 - I Won't Tell You
05 - Not Enough
06 - Fragile
07 - Entwined
08 - Closer
09 - Heaven's A Lie
10 - Enjoy The Silence (Depeche Mode cover)
11 - I'm Not Afraid
12 - Spellbound
13 - Our Truth
Качество: TeleSynch
Формат: MP4
Видео кодек: H.264
Аудио кодек: AAC
Видео: 640x360, (16x9), 25fps, 1200kbps
Аудио: 44000Hz, Stereo, 128kbps

Подробное качество:

Video:
Codec : H.264
Codec/Info : H.264 (3GPP)
Bit rate : 1210 Kbps
Width : 640 pixels
Height : 360 pixels
Display Aspect ratio : 16/9
Frame rate : 25.000 fps
Audio:
Codec : AAC LC
Codec/Info : AAC Low Complexity
Bit rate : 128 Kbps
Channel(s) : 2 channels
Channel positions : L R
Sampling rate : 44 KHz
Resolution : 16 bits

Скриншоты:




MediaInfo

Код:
General
Complete name                    : H:\Занято\Lacuna Coil - Live at Graspop (2009).mp4
Format                           : MPEG-4
Format profile                   : Base Media
Codec ID                         : isom
File size                        : 562 MiB
Duration                         : 58mn 32s
Overall bit rate                 : 1 342 Kbps
Encoded date                     : UTC 2010-07-08 15:10:30
Tagged date                      : UTC 2010-07-08 15:10:30
Video
ID                               : 1
Format                           : AVC
Format/Info                      : Advanced Video Codec
Format profile                   : Main@L1.3
Format settings, CABAC           : Yes
Format settings, ReFrames        : 1 frame
Codec ID                         : avc1
Codec ID/Info                    : Advanced Video Coding
Duration                         : 58mn 32s
Bit rate mode                    : Variable
Bit rate                         : 1 210 Kbps
Width                            : 640 pixels
Height                           : 360 pixels
Display aspect ratio             : 16:9
Frame rate mode                  : Constant
Frame rate                       : 25.000 fps
Color space                      : YUV
Chroma subsampling               : 4:2:0
Bit depth                        : 8 bits
Scan type                        : Progressive
Bits/(Pixel*Frame)               : 0.210
Stream size                      : 506 MiB (90%)
Encoded date                     : UTC 2010-07-08 15:10:30
Tagged date                      : UTC 2010-07-08 15:10:30
Audio
ID                               : 2
Format                           : AAC
Format/Info                      : Advanced Audio Codec
Format profile                   : LC
Codec ID                         : 40
Duration                         : 58mn 31s
Bit rate mode                    : Variable
Bit rate                         : 128 Kbps
Channel(s)                       : 2 channels
Channel positions                : Front: L R
Sampling rate                    : 44.1 KHz
Compression mode                 : Lossy
Stream size                      : 53.6 MiB (10%)
Encoded date                     : UTC 2010-07-08 15:10:30
Tagged date                      : UTC 2010-07-08 15:10:30
Lacuna Coil - Live at Graspop (2009).mp4.torrent 
Торрент: Зарегистрирован   [ 14-03-2012 17:28 ] · 63BCACD81EC926341F833CD9A2531492B74378EC

Скачать .torrent

Скачать

11 KB

Статус: проверено
Скачан: 18 раз
Размер: 562 MB
terms.php


Показать сообщения:    

Текущее время: 11-Дек 12:16

Часовой пояс: UTC + 4


Вы не можете начинать темы
Вы не можете отвечать на сообщения
Вы не можете редактировать свои сообщения
Вы не можете удалять свои сообщения
Вы не можете голосовать в опросах
Вы не можете прикреплять файлы к сообщениям
Вы можете скачивать файлы

Сайт не предоставляет электронные версии произведений, а занимается лишь коллекционированием и каталогизацией ссылок, присылаемых и публикуемых на форуме нашими читателями. Если вы являетесь правообладателем какого-либо представленного материала и не желаете, чтобы ссылка на него находилась в нашем каталоге, свяжитесь с нами, и мы незамедлительно удалим ее. Файлы для обмена на трекере предоставлены пользователями сайта, и администрация не несет ответственности за их содержание. Просьба не заливать файлы, защищенные авторскими правами, а также файлы нелегального содержания!