Metallore online

Вступить в онлайн сообщество

Объявление от Pariah: Обьявлен ежегодный конкурс ИНВАЙТОВ!!! С призами и дополнительными поощрениями

Последние сообщения

Metallore online

От: Morn Gail
29-11-2016 18:18

Откуда приходим.

От: Pariah
03-11-2016 09:42

Откуда приходим.

От: formaht
02-11-2016 20:28

Social tracker:



Статистика раздачи [Обновить пиров]
Размер:  775 MB   |    Зарегистрирован:  4 года 8 месяцев   |    Скачан:  31 раз
Сидов:  1  [  0 KB/s  ]  
 
   
 
 
 

[Цитировать]

Napalm Death - Live Corruption-- Год: 1990
Страна: Великобритания
Жанр: Grind / Death Metal
Продолжительность: 00:51:26
Описание:
Выступление Napalm Death 30 июня 1990 года. Тур в поддержку альбома Harmony Corruption.
Треклист:
01 - Control
02 - Walls Of Confinement
03 - Unhallenged Hate
04 - Life
05 - The Kill
06 - Scum
07 - If The Truth Be Know
08 - Lucid Fairytale
09 - Malicious Intent
10 - Social Sterility
11 - Suffer The Children
12 - From Enslavement To Obliteration
13 - Dead
14 - Practise What You Preach
15 - Mentally Murdered
16 - Extremity Retained
17 - Mind Snare
18 - Succes
19 - Rise Above
20 - Instinct Of Survival
21 - Siege Of Power
22 - You Suffer
23 - Deceiver
Качество: VHSRip
Формат: AVI
Видео кодек: DivX
Аудио кодек: AC3
Видео: Video: DivX 5 704x528 25.00fps
Аудио: Audio: Dolby AC3 48000Hz stereo 256Kbps

Подробное качество:

Video:
Codec : DivX 5
Codec/Family : MPEG-4
Codec settings/PacketBitStream : Yes
Codec settings/BVOP : Yes
Codec settings/QPel : No
Codec settings/GMC : 0
Codec settings/Matrix : Default
PlayTime : 51mn 26s
Bit rate : 1840 Kbps
Width : 704 pixels
Height : 528 pixels
Display Aspect ratio : 4/3
Frame rate : 25.000 fps
Resolution : 8 bits
Chroma : 4:2:0
Interlacement : Progressive
Bits/(Pixel*Frame) : 0.197
StreamSize : 677 MiB
Audio:
Codec : AC3
PlayTime : 51mn 26s
Bit rate : 254 Kbps
Bit rate mode : CBR
Channel(s) : 2 channels
Channel positions : L R
Sampling rate : 48 KHz
StreamSize : 93.6 MiB

Скриншоты:



MediaInfo

Код:
General
Complete name                    : H:\Napalm Death -Live Corruption.avi
Format                           : AVI
Format/Info                      : Audio Video Interleave
File size                        : 775 MiB
Duration                         : 51mn 26s
Overall bit rate                 : 2 107 Kbps
Video
ID                               : 0
Format                           : MPEG-4 Visual
Format settings, BVOP            : 1
Format settings, QPel            : No
Format settings, GMC             : No warppoints
Format settings, Matrix          : Default (H.263)
Muxing mode                      : Packed bitstream
Codec ID                         : DX50
Codec ID/Hint                    : DivX 5
Duration                         : 51mn 26s
Bit rate                         : 1 841 Kbps
Width                            : 704 pixels
Height                           : 528 pixels
Display aspect ratio             : 4:3
Frame rate                       : 25.000 fps
Color space                      : YUV
Chroma subsampling               : 4:2:0
Bit depth                        : 8 bits
Scan type                        : Progressive
Compression mode                 : Lossy
Bits/(Pixel*Frame)               : 0.198
Stream size                      : 677 MiB (87%)
Title                            : Video
Writing library                  : DivX 5.2.1 Alpha (UTC 2004-09-08)
Audio
ID                               : 1
Format                           : AC-3
Format/Info                      : Audio Coding 3
Mode extension                   : CM (complete main)
Codec ID                         : 2000
Duration                         : 51mn 26s
Bit rate mode                    : Constant
Bit rate                         : 256 Kbps
Channel(s)                       : 2 channels
Channel positions                : Front: L R
Sampling rate                    : 48.0 KHz
Bit depth                        : 16 bits
Compression mode                 : Lossy
Stream size                      : 94.2 MiB (12%)
Alignment                        : Split accross interleaves
Interleave, duration             : 40 ms (1.00 video frame)
Interleave, preload duration     : 500 ms
Title                            : Audio
Napalm Death - Live Corruption (1990).avi.torrent 
Торрент: Зарегистрирован   [ 09-04-2012 21:29 ] · DC39F063B4E293579E010A0DCC881AE482496105

Скачать .torrent

Скачать

15 KB

Статус: проверено
Скачан: 31 раз
Размер: 775 MB
terms.php


Последний раз редактировалось: Ro-neF (09-04-2012 21:29), всего редактировалось 2 раз(а)


Показать сообщения:    

Текущее время: 11-Дек 02:41

Часовой пояс: UTC + 4


Вы не можете начинать темы
Вы не можете отвечать на сообщения
Вы не можете редактировать свои сообщения
Вы не можете удалять свои сообщения
Вы не можете голосовать в опросах
Вы не можете прикреплять файлы к сообщениям
Вы можете скачивать файлы

Сайт не предоставляет электронные версии произведений, а занимается лишь коллекционированием и каталогизацией ссылок, присылаемых и публикуемых на форуме нашими читателями. Если вы являетесь правообладателем какого-либо представленного материала и не желаете, чтобы ссылка на него находилась в нашем каталоге, свяжитесь с нами, и мы незамедлительно удалим ее. Файлы для обмена на трекере предоставлены пользователями сайта, и администрация не несет ответственности за их содержание. Просьба не заливать файлы, защищенные авторскими правами, а также файлы нелегального содержания!