Metallore online

Вступить в онлайн сообщество

Объявление от Pariah: Обьявлен ежегодный конкурс ИНВАЙТОВ!!! С призами и дополнительными поощрениями

Последние сообщения

Metallore online

От: Morn Gail
29-11-2016 18:18

Откуда приходим.

От: Pariah
03-11-2016 09:42

Откуда приходим.

От: formaht
02-11-2016 20:28

Social tracker:



Статистика раздачи [Обновить пиров]
Размер:  700 MB   |    Зарегистрирован:  4 года 8 месяцев   |    Скачан:  22 раза
Сидов:  1  [  0 KB/s  ]  
 
   
 
 
 

[Цитировать]

Obituary - Live Xecution (Live at Party. San Open Air in Germany in August 2008)-- Год: 2009
Страна: США
Жанр: Death Metal
Продолжительность: 01:06:43
Треклист:
01- Find The Arise
02 - On The Floor
03 - Chopped In Half
04 - Turned Inside Out
05 - Forces Realign
06 - Insane
07 - Face Your God
08 - Dethroned Emperor
09 - Evil Ways
10 - Drop Dead
11 - Contrast The Dead
12 - Second Chance
13 - Stand Alone
14 - Slow Death
15 - Slowly We Rot
Качество: DVDRip
Формат: AVI
Видео кодек: XviD
Аудио кодек: MP3
Видео: XVID 704x528 25.00fps 1235Kbps
Аудио: MPEG Audio Layer 3 48000Hz stereo 224Kbps

Подробное качество:

Video:
Codec : XviD
Codec/Family : MPEG-4
Codec/Info : XviD project
Codec profile : Streaming Video Profile/Level 1
Codec settings/PacketBitStream : No
Codec settings/BVOP : Yes
Codec settings/QPel : No
Codec settings/GMC : 0
Codec settings/Matrix : Custom
PlayTime : 1h 6mn
Bit rate : 1234 Kbps
Width : 704 pixels
Height : 528 pixels
Display Aspect ratio : 4/3
Frame rate : 25.000 fps
Resolution : 8 bits
Chroma : 4:2:0
Interlacement : Progressive
Bits/(Pixel*Frame) : 0.132
StreamSize : 589 MiB
Audio:
Codec : MPEG-1 Audio layer 3
Codec profile : Joint stereo
PlayTime : 1h 6mn
Bit rate : 223 Kbps
Bit rate mode : CBR
Channel(s) : 2 channels
Sampling rate : 48 KHz
Resolution : 16 bits
StreamSize : 107 MiB
Writing library : LAME3.98r
Encoding settings : CBR

Скриншоты:



MediaInfo:

Код:
General
Complete name                    : H:\Obituary - Live Xecution.avi
Format                           : AVI
Format/Info                      : Audio Video Interleave
File size                        : 700 MiB
Duration                         : 1h 6mn
Overall bit rate                 : 1 466 Kbps
Writing application              : VirtualDubMod 1.5.4.1 (build 2178/release)
Writing library                  : VirtualDubMod build 2178/release
Video
ID                               : 0
Format                           : MPEG-4 Visual
Format profile                   : Advanced Simple@L5
Format settings, BVOP            : 1
Format settings, QPel            : No
Format settings, GMC             : No warppoints
Format settings, Matrix          : Custom
Codec ID                         : XVID
Codec ID/Hint                    : XviD
Duration                         : 1h 6mn
Bit rate                         : 1 235 Kbps
Width                            : 704 pixels
Height                           : 528 pixels
Display aspect ratio             : 4:3
Frame rate                       : 25.000 fps
Color space                      : YUV
Chroma subsampling               : 4:2:0
Bit depth                        : 8 bits
Scan type                        : Progressive
Compression mode                 : Lossy
Bits/(Pixel*Frame)               : 0.133
Stream size                      : 589 MiB (84%)
Writing library                  : XviD 1.2.1 (UTC 2008-12-04)
Audio
ID                               : 1
Format                           : MPEG Audio
Format version                   : Version 1
Format profile                   : Layer 3
Mode                             : Joint stereo
Codec ID                         : 55
Codec ID/Hint                    : MP3
Duration                         : 1h 6mn
Bit rate mode                    : Constant
Bit rate                         : 224 Kbps
Channel(s)                       : 2 channels
Sampling rate                    : 48.0 KHz
Compression mode                 : Lossy
Stream size                      : 107 MiB (15%)
Alignment                        : Aligned on interleaves
Interleave, duration             : 80 ms (2.00 video frames)
Interleave, preload duration     : 504 ms
Writing library                  : LAME3.98r
Encoding settings                : -m j -V 4 -q 2 -lowpass 19.4 -b 224
Language                         : English
Obituary - Live Xecution.torrent 
Торрент: Зарегистрирован   [ 14-03-2012 21:09 ] · A1BA57E820E9D6EA38F05187C83899EBEE0DCC22

Скачать .torrent

Скачать

14 KB

Статус: проверено
Скачан: 22 раз
Размер: 700 MB
terms.php


Последний раз редактировалось: Ro-neF (18-03-2012 14:15), всего редактировалось 1 раз


Показать сообщения:    

Текущее время: 08-Дек 16:24

Часовой пояс: UTC + 4


Вы не можете начинать темы
Вы не можете отвечать на сообщения
Вы не можете редактировать свои сообщения
Вы не можете удалять свои сообщения
Вы не можете голосовать в опросах
Вы не можете прикреплять файлы к сообщениям
Вы можете скачивать файлы

Сайт не предоставляет электронные версии произведений, а занимается лишь коллекционированием и каталогизацией ссылок, присылаемых и публикуемых на форуме нашими читателями. Если вы являетесь правообладателем какого-либо представленного материала и не желаете, чтобы ссылка на него находилась в нашем каталоге, свяжитесь с нами, и мы незамедлительно удалим ее. Файлы для обмена на трекере предоставлены пользователями сайта, и администрация не несет ответственности за их содержание. Просьба не заливать файлы, защищенные авторскими правами, а также файлы нелегального содержания!