Metallore online

Вступить в онлайн сообщество

Объявление от Pariah: Обьявлен ежегодный конкурс ИНВАЙТОВ!!! С призами и дополнительными поощрениями

Последние сообщения

Metallore online

От: Morn Gail
29-11-2016 18:18

Откуда приходим.

От: Pariah
03-11-2016 09:42

Откуда приходим.

От: formaht
02-11-2016 20:28

Social tracker:



Статистика раздачи [Обновить пиров]
Размер:  417 MB   |    Зарегистрирован:  4 года 8 месяцев   |    Скачан:  39 раз
Сидов:  1  [  0 KB/s  ]  
 
   
 
 
 

[Цитировать]

Therion - Live at Wacken-- Год: 2001
Страна: Швеция
Жанр: Death Metal (early) / Symphonic/Operatic Metal (later)
Продолжительность: 00:43:31
Треклист:
01 - Seven Secrets Of The Sphinx
02 - The Invocation Of Naamah
03 - Cults Of The Shadow
04 - Birth Of Venus Illegitima
05 - In The Desert Of Set
06 - Te Rise Of Sodom And Gomorrah
07 - Wine Of Aluqah
08 - To Mega Therion
Качество: DVDRip
Формат: AVI
Видео кодек: DivX
Аудио кодек: MP3
Видео: 720x576 24бит 163 кбит/сек 25 кадров/сек
Аудио: MP3 128 kbit/sek

Подробное качество:

Video:
Codec : DivX 4
Codec/Family : MPEG-4
Codec/Info : Project Mayo DivX 4
Codec profile : Simple Profile/Level 1
Codec settings/PacketBitStream : No
Codec settings/BVOP : No
Codec settings/QPel : No
Codec settings/GMC : 0
Codec settings/Matrix : Default
PlayTime : 43mn 31s
Bit rate : 1198 Kbps
Width : 720 pixels
Height : 576 pixels
Display Aspect ratio : 5/4
Frame rate : 25.000 fps
Standard : PAL
Resolution : 8 bits
Chroma : 4:2:0
Interlacement : Progressive
Bits/(Pixel*Frame) : 0.115
StreamSize : 373 MiB
Audio:
Codec : MPEG-1 Audio layer 3
Codec profile : Joint stereo
Bit rate : 128 Kbps
Bit rate mode : CBR
Channel(s) : 2 channels
Sampling rate : 48 KHz
Resolution : 16 bits
StreamSize : 39.0 MiB
Writing library : Lame 3.96.1
Coherency/PlayTime : 6802

Скриншоты:



MediaInfo:

Код:
General
Complete name                    : H:\Therion - Live at Wacken (2001).avi
Format                           : AVI
Format/Info                      : Audio Video Interleave
File size                        : 417 MiB
Duration                         : 43mn 31s
Overall bit rate                 : 1 340 Kbps
Video
ID                               : 0
Format                           : MPEG-4 Visual
Format profile                   : Simple@L1
Format settings, BVOP            : No
Format settings, QPel            : No
Format settings, GMC             : No warppoints
Format settings, Matrix          : Default (H.263)
Codec ID                         : DIVX
Codec ID/Info                    : Project Mayo
Codec ID/Hint                    : DivX 4
Duration                         : 43mn 31s
Bit rate                         : 1 199 Kbps
Width                            : 720 pixels
Height                           : 576 pixels
Display aspect ratio             : 5:4
Frame rate                       : 25.000 fps
Standard                         : PAL
Color space                      : YUV
Chroma subsampling               : 4:2:0
Bit depth                        : 8 bits
Scan type                        : Progressive
Compression mode                 : Lossy
Bits/(Pixel*Frame)               : 0.116
Stream size                      : 373 MiB (89%)
Writing library                  : avc2.0.11.1110
Audio
ID                               : 1
Format                           : MPEG Audio
Format version                   : Version 1
Format profile                   : Layer 3
Mode                             : Joint stereo
Mode extension                   : MS Stereo
Codec ID                         : 55
Codec ID/Hint                    : MP3
Duration                         : 43mn 31s
Bit rate mode                    : Constant
Bit rate                         : 128 Kbps
Channel(s)                       : 2 channels
Sampling rate                    : 48.0 KHz
Compression mode                 : Lossy
Stream size                      : 39.9 MiB (10%)
Alignment                        : Aligned on interleaves
Interleave, duration             : 24 ms (0.60 video frame)
Writing library                  : LAME3.96.1
therion - live at wacker.torrent 
Торрент: Зарегистрирован   [ 15-03-2012 17:43 ] · 3D5D7B87C1BC0C4D7479521052955BA7BDBD6866

Скачать .torrent

Скачать

16 KB

Статус: проверено
Скачан: 39 раз
Размер: 417 MB
terms.php


Последний раз редактировалось: Ro-neF (18-03-2012 14:13), всего редактировалось 1 раз


Показать сообщения:    

Текущее время: 09-Дек 17:45

Часовой пояс: UTC + 4


Вы не можете начинать темы
Вы не можете отвечать на сообщения
Вы не можете редактировать свои сообщения
Вы не можете удалять свои сообщения
Вы не можете голосовать в опросах
Вы не можете прикреплять файлы к сообщениям
Вы можете скачивать файлы

Сайт не предоставляет электронные версии произведений, а занимается лишь коллекционированием и каталогизацией ссылок, присылаемых и публикуемых на форуме нашими читателями. Если вы являетесь правообладателем какого-либо представленного материала и не желаете, чтобы ссылка на него находилась в нашем каталоге, свяжитесь с нами, и мы незамедлительно удалим ее. Файлы для обмена на трекере предоставлены пользователями сайта, и администрация не несет ответственности за их содержание. Просьба не заливать файлы, защищенные авторскими правами, а также файлы нелегального содержания!