Message from от Pariah: Обьявлен ежегодный конкурс ИНВАЙТОВ!!! С призами и дополнительными поощрениями

Latest Messages

инвайт на

От: ads-centr
13-09-2016 01:10

инвайт на

От: pantera479
07-09-2016 21:59

Social tracker:

DL-List and Torrent activity [Update пиров]
Size:  618 MB   |    Registered:  4 years 6 months   |    Completed:  18 times
Seeders:  1  [  0 KB/s  ]  


Sepultura - Live Stahlwerk, Dusseldorf, Germany-- Год выпуска: 1996
Страна: Бразилия
Жанр: Death/Thrash Metal (early) / Groove/Hardcore (later)
Продолжительность: 00:32:00-Треклист:
01 - Intro
02 - Interview
03 - Spit
04 - Territory
05 - Breed Apart
06 - Interview
07 - Cut Throat
08 - Troops of Doom
09 - Propaganda
10 - Interview
11 - Refuse/Resist-Качество: TVRip
Формат: AVI
Видео кодек: DivX
Аудио кодек: MP3
Видео: 720x544, (4x3), 25fps, 2400kbps
Аудио: 48000Hz, Stereo, 2Ch, 192kbps

Подробное качество:

Format : MPEG-4 Visual
Format settings, BVOP : Yes
Format settings, QPel : No
Format settings, GMC : No warppoints
Format settings, Matrix : Default (H.263)
Muxing mode : Packed bitstream
Codec ID : DX50
Codec ID/Hint : DivX 5
Duration : 32mn 0s
Bit rate : 2 499 Kbps
Width : 720 pixels
Height : 544 pixels
Display aspect ratio : 4:3
Frame rate : 25.000 fps
Resolution : 8 bits
Colorimetry : 4:2:0
Scan type : Progressive
Bits/(Pixel*Frame) : 0.255
Stream size : 572 MiB (93%)
Title : Video
Writing library : DivX 3013
Format : MPEG Audio
Format version : Version 1
Format profile : Layer 3
Codec ID : 55
Codec ID/Hint : MP3
Duration : 32mn 0s
Bit rate mode : Constant
Bit rate : 192 Kbps
Channel(s) : 2 channels
Sampling rate : 48.0 KHz
Stream size : 43.9 MiB (7%)
Alignment : Split accross interleaves
Interleave, duration : 40 ms (1.00 video frame)
Interleave, preload duration : 500 ms
Title : Audio


Sepultura - Live Stahlwerk, Dusseldorf, Germany (1996).avi.torrent 
Torrent: Registered   [ 30-03-2012 14:36 ] · B99521D4BB743EDA9EC13D872A1087179B9E8ED7

Download .torrent


12 KB

Status: checked
Completed: 18 times
Size: 618 MB

Last edited by Ro-neF on 24-11-2012 18:04; edited 2 times in total


а где раздача?второй день и ночь пошли а здвига нет!!!!!!!!!!!! ai


а где раздача?второй день и ночь пошли а здвига нет!!!!!!!!!!!! ai
Вот смотри: ты - человек, я тоже. Ты сломал ногу или заболел - вышел из строя. Я уехал на выходные в гости - тоже вышел из строя как раздающий. Ты вылечился - ты в строю, я приехал домой - я тоже в строю. Сегодня всё будет как обычно. Главное не паниковать раньше времени.
[торрент_учит_терпению] ab

Display posts:    

Current time is: 28-Oct 09:24

All times are UTC + 4

You cannot post new topics in this forum
You cannot reply to topics in this forum
You cannot edit your posts in this forum
You cannot delete your posts in this forum
You cannot vote in polls in this forum
You cannot attach files in this forum
You can download files in this forum

The site does not give electronic versions of products, and is engaged only in a collecting and cataloguing of the references sent and published at a forum by our readers. If you are the legal owner of any submitted material and do not wish that the reference to it was in our catalogue, contact us and we shall immediately remove her. Files for an exchange on tracker are given by users of a site, and the administration does not bear the responsibility for their maintenance. The request to not fill in the files protected by copyrights, and also files of the illegal maintenance!