Metallore online

Вступить в онлайн сообщество

Объявление от Pariah: Обьявлен ежегодный конкурс ИНВАЙТОВ!!! С призами и дополнительными поощрениями

Последние сообщения

Metallore online

От: Morn Gail
29-11-2016 18:18

Откуда приходим.

От: Pariah
03-11-2016 09:42

Откуда приходим.

От: formaht
02-11-2016 20:28

Social tracker:



Статистика раздачи [Обновить пиров]
Размер:  700 MB   |    Зарегистрирован:  4 года 8 месяцев   |    Скачан:  22 раза
Сидов:  1  [  0 KB/s  ]  
 
   
 
 
 

[Цитировать]

Deicide - Doomsday in L.A-- Год выпуска: 2007
Страна: США
Жанр: Death Metal
Продолжительность: 01:12:45
Треклист:
01 - Intro
02 - Dead By Dawn
03 - Once Upon The Cross
04 - Scars of the Crucifix
05 - The Stench of Redemption
06 - Death to Jesus
07 - When Satan Rules His World
08 - Serpents of the Light
09 - They Are The Children Of The Underworld
10 - Desecration
11 - Bastards of Christ
12 - Dead But Dreaming
13 - Trifixion
14 - When Heaven Burns
15 - Walk With the Devil in Dreams You Behold
16 - Homage to Satan
17 - Kill the Christian
18 - Sacrificial Suicide
Качество: DVDRip
Формат: AVI
Видео кодек: XviD
Аудио кодек: AC3
Видео: 720x496 (1.45:1),1081 kbps avg
Аудио: AC3 Dolby Digital,256.00 kbps avg

Подробное качество:

Video:
Format : MPEG-4 Visual
Format profile : Advanced Simple@L5
Format settings, BVOP : Yes
Format settings, QPel : No
Format settings, GMC : No warppoints
Format settings, Matrix : Custom
Codec ID : XVID
Codec ID/Hint : XviD
Duration : 1h 12mn
Bit rate : 1 080 Kbps
Width : 720 pixels
Height : 496 pixels
Display aspect ratio : 3:2
Frame rate : 29.970 fps
Resolution : 8 bits
Colorimetry : 4:2:0
Scan type : Progressive
Bits/(Pixel*Frame) : 0.101
Stream size : 562 MiB (80%)
Writing library : XviD 1.2.0.dev47 (UTC 2006-11-01)
Audio:
Format : AC-3
Format/Info : Audio Coding 3
Format_Settings_ModeExtension : CM (complete main)
Codec ID : 2000
Duration : 1h 12mn
Bit rate mode : Constant
Bit rate : 256 Kbps
Channel(s) : 2 channels
Channel positions : Front: L R
Sampling rate : 48.0 KHz
Stream size : 133 MiB (19%)
Alignment : Aligned on interleaves
Interleave, duration : 96 ms (2.88 video frames)
Interleave, preload duration : 96 ms

Скриншоты:




Deicide - Doomsday in L.A (2007).avi.torrent 
Торрент: Зарегистрирован   [ 09-04-2012 21:24 ] · DD842C55006448FC7F62E7F2074FA34394615564

Скачать .torrent

Скачать

14 KB

Статус: проверено
Скачан: 22 раз
Размер: 700 MB
terms.php


Последний раз редактировалось: Ro-neF (09-04-2012 21:24), всего редактировалось 1 раз


Показать сообщения:    

Текущее время: 09-Дек 21:39

Часовой пояс: UTC + 4


Вы не можете начинать темы
Вы не можете отвечать на сообщения
Вы не можете редактировать свои сообщения
Вы не можете удалять свои сообщения
Вы не можете голосовать в опросах
Вы не можете прикреплять файлы к сообщениям
Вы можете скачивать файлы

Сайт не предоставляет электронные версии произведений, а занимается лишь коллекционированием и каталогизацией ссылок, присылаемых и публикуемых на форуме нашими читателями. Если вы являетесь правообладателем какого-либо представленного материала и не желаете, чтобы ссылка на него находилась в нашем каталоге, свяжитесь с нами, и мы незамедлительно удалим ее. Файлы для обмена на трекере предоставлены пользователями сайта, и администрация не несет ответственности за их содержание. Просьба не заливать файлы, защищенные авторскими правами, а также файлы нелегального содержания!