Metallore online

Вступить в онлайн сообщество

Объявление от Pariah: Обьявлен ежегодный конкурс ИНВАЙТОВ!!! С призами и дополнительными поощрениями

Последние сообщения

Metallore online

От: Morn Gail
29-11-2016 18:18

Откуда приходим.

От: Pariah
03-11-2016 09:42

Откуда приходим.

От: formaht
02-11-2016 20:28

Social tracker:



Статистика раздачи [Обновить пиров]
Размер:  882 MB   |    Зарегистрирован:  4 года 8 месяцев   |    Скачан:  20 раз
Сидов:  1  [  0 KB/s  ]  
 
   
 
 
 

[Цитировать]

Napalm Death - Live in Russia, Moscow, club XO-- Год выпуска : 2010
Страна : Великобритания
Жанр : Hardcore Punk (early) / Grindcore/Death Metal (later)
Продолжительность : 01:04:37-Треклист:
01 - Strong-Arm
02 - Unchallenged Hate
03 - Suffer the Children
04 - Silence Is Deafening
05 - Life and Limb
06 - Diktat
07 - When All Is Said and Done
08 - It's a M.A.N.S. World!
09 - From Enslavement to Obliteration
10 - On the Brink of Extinction
11 - Scum
12 - Life?
13 - The Kill
14 - Deceiver
15 - You Suffer
16 - Mass Appeal Madness
17 - Nazi Punks Fuck Off (Dead Kennedys cover)
18 - Persona Non Grata
19 - Smear Campaign-Характеристики файла:
Качество : DVDRip
Формат : AVI
Видео кодек : DivX
Аудио кодек : MP3
Видео : 640x352 (16:9), 23.976 fps, DivX Codec 4.x ~1770 kbps avg, 0.33 bit/pixel
Аудио : 32 kHz, MPEG Layer 3, 2 ch, ~128.00 kbps avg

Подробное качество :

Video :
ID : 0
Format : MPEG-4 Visual
Format profile : Simple@L1
Format settings, BVOP : No
Format settings, QPel : No
Format settings, GMC : No warppoints
Format settings, Matrix : Default (H.263)
Codec ID : DIVX
Codec ID/Info : Project Mayo
Codec ID/Hint : DivX 4
Duration : 1h 4mn
Bit rate : 1 771 Kbps
Width : 640 pixels
Height : 352 pixels
Display aspect ratio : 16:9
Frame rate : 23.976 fps
Resolution : 8 bits
Colorimetry : 4:2:0
Scan type : Progressive
Bits/(Pixel*Frame) : 0.328
Stream size : 819 MiB (93%)
Writing library : Lavc51.38.0
Audio :
ID : 1
Format : MPEG Audio
Format version : Version 1
Format profile : Layer 3
Mode : Joint stereo
Format_Settings_ModeExtension : MS Stereo
Codec ID : 55
Codec ID/Hint : MP3
Duration : 1h 4mn
Bit rate mode : Constant
Bit rate : 128 Kbps
Channel(s) : 2 channels
Sampling rate : 32.0 KHz
Stream size : 59.2 MiB (7%)
Alignment : Aligned on interleaves
Interleave, duration : 36 ms (0.86 video frame)

Скриншоты :



Napalm Death - Live in Russia, Moscow, club XO (2010).avi.torrent 
Торрент: Зарегистрирован   [ 30-03-2012 22:04 ] · 4E77C2E7D8A6BA64288130C97D4BD5C699178F0D

Скачать .torrent

Скачать

17 KB

Статус: проверено
Скачан: 20 раз
Размер: 882 MB
terms.php


Последний раз редактировалось: Ro-neF (22-05-2012 14:01), всего редактировалось 1 раз


Показать сообщения:    

Текущее время: 04-Дек 20:40

Часовой пояс: UTC + 4


Вы не можете начинать темы
Вы не можете отвечать на сообщения
Вы не можете редактировать свои сообщения
Вы не можете удалять свои сообщения
Вы не можете голосовать в опросах
Вы не можете прикреплять файлы к сообщениям
Вы можете скачивать файлы

Сайт не предоставляет электронные версии произведений, а занимается лишь коллекционированием и каталогизацией ссылок, присылаемых и публикуемых на форуме нашими читателями. Если вы являетесь правообладателем какого-либо представленного материала и не желаете, чтобы ссылка на него находилась в нашем каталоге, свяжитесь с нами, и мы незамедлительно удалим ее. Файлы для обмена на трекере предоставлены пользователями сайта, и администрация не несет ответственности за их содержание. Просьба не заливать файлы, защищенные авторскими правами, а также файлы нелегального содержания!