Metallore online

Вступить в онлайн сообщество

Объявление от Pariah: Обьявлен ежегодный конкурс ИНВАЙТОВ!!! С призами и дополнительными поощрениями

Последние сообщения

Metallore online

От: Morn Gail
29-11-2016 18:18

Откуда приходим.

От: Pariah
03-11-2016 09:42

Откуда приходим.

От: formaht
02-11-2016 20:28

Social tracker:



Статистика раздачи [Обновить пиров]
Размер:  1010 MB   |    Зарегистрирован:  4 года 8 месяцев   |    Скачан:  20 раз
Сидов:  1  [  0 KB/s  ]  
 
   
 
 
 

[Цитировать]

Dream Theater - Romavarium-- Год выпуска: 2006
Страна: США
Жанр: Progressive Metal
Продолжительность: 01:22:40
-Доп. информация:
Заключительный европейский концерт в туре в честь 20-ти летия группы Dream Theater. Шоу состоялось 31-го октября 2005 года в Риме. Как видно, ребята полностью отыграли свой альбом Octavarium.
Треклист:
01 - The Root Of All Evil
02 - The Answer Lies Within
03 - These Walls
04 - I Walk Beside You
05 - Panic Attack
06 - Never Enough
07 - Sacrificed Sons
08 - Octavarium
-Качество: DVDRip
Формат: MKV
Видео кодек: H.264
Аудио кодек: AC3
Видео: MPEG4 Video (H264) 640x480 29.97fps AVC
Аудио: AC3 2.0 192kbps

Подробное качество:

Video:
Format : AVC
Format/Info : Advanced Video Codec
Format profile : Main@L3.0
Format settings, CABAC : Yes
Format settings, ReFrames : 1 frame
Format_Settings_GOP : N=1
Muxing mode : Container profile=Unknown@3.0
Codec ID : V_MPEG4/ISO/AVC
Duration : 1h 22mn
Bit rate : 1 482 Kbps
Nominal bit rate : 1 518 Kbps
Width : 640 pixels
Height : 480 pixels
Display aspect ratio : 4:3
Frame rate : 29.970 fps
Resolution : 8 bits
Colorimetry : 4:2:0
Scan type : Progressive
Bits/(Pixel*Frame) : 0.161
Stream size : 876 MiB (87%)
Writing library : x264 core 65 r1016M dbc5ef0
Encoding settings : cabac=1 / ref=1 / deblock=1:0:0 / analyse=0x1:0x111 / me=hex / subme=6 / psy_rd=1.0:0.0 / mixed_ref=0 / me_range=16 / chroma_me=1 / trellis=0 / 8x8dct=0 / cqm=0 / deadzone=21,11 / chroma_qp_offset=-2 / threads=3 / nr=0 / decimate=1 / mbaff=0 / bframes=0 / keyint=250 / keyint_min=25 / scenecut=40(pre) / rc=abr / bitrate=1518 / ratetol=1.0 / qcomp=0.60 / qpmin=10 / qpmax=51 / qpstep=4 / ip_ratio=1.40 / aq=1:1.00
Language : English
Audio:
Format : AC-3
Format/Info : Audio Coding 3
Format_Settings_ModeExtension : CM (complete main)
Codec ID : A_AC3
Duration : 1h 22mn
Bit rate mode : Constant
Bit rate : 192 Kbps
Channel(s) : 2 channels
Channel positions : Front: L R
Sampling rate : 48.0 KHz
Stream size : 114 MiB (11%)
Title : AC3 2.0 192Kbps
Language : English

Скриншоты:



Dream Theater - Romavarium (2006).mkv.torrent 
Торрент: Зарегистрирован   [ 07-04-2012 11:16 ] · 25FC495EFFB677024349FA1F17E5907CB09E4E63

Скачать .torrent

Скачать

20 KB

Статус: проверено
Скачан: 20 раз
Размер: 1010 MB
terms.php


Показать сообщения:    

Текущее время: 07-Дек 20:36

Часовой пояс: UTC + 4


Вы не можете начинать темы
Вы не можете отвечать на сообщения
Вы не можете редактировать свои сообщения
Вы не можете удалять свои сообщения
Вы не можете голосовать в опросах
Вы не можете прикреплять файлы к сообщениям
Вы можете скачивать файлы

Сайт не предоставляет электронные версии произведений, а занимается лишь коллекционированием и каталогизацией ссылок, присылаемых и публикуемых на форуме нашими читателями. Если вы являетесь правообладателем какого-либо представленного материала и не желаете, чтобы ссылка на него находилась в нашем каталоге, свяжитесь с нами, и мы незамедлительно удалим ее. Файлы для обмена на трекере предоставлены пользователями сайта, и администрация не несет ответственности за их содержание. Просьба не заливать файлы, защищенные авторскими правами, а также файлы нелегального содержания!