Metallore online

Вступить в онлайн сообщество

Объявление от Pariah: Обьявлен ежегодный конкурс ИНВАЙТОВ!!! С призами и дополнительными поощрениями

Последние сообщения

Metallore online

От: Morn Gail
29-11-2016 18:18

Откуда приходим.

От: Pariah
03-11-2016 09:42

Откуда приходим.

От: formaht
02-11-2016 20:28

Social tracker:



Статистика раздачи [Обновить пиров]
Размер:  468 MB   |    Зарегистрирован:  4 года 7 месяцев   |    Скачан:  26 раз
Сидов:  1  [  0 KB/s  ]  
 
   
 
 
 

[Цитировать]

Hypocrisy - Live At Summer Breeze Festival-- Год выпуска: 2002
Страна: Швеция
Жанр: Death Metal (1990-1994)/Melodic Death Metal (1995-)
Продолжительность: 00:53:21
-Доп. информация:
Выступление Hypocrisy на фестивале Summer Breeze 2002/08/22 (полный сет). Песни 7, 8, 11 также были выпущены в качестве видеобонуса к альбому Catch 22 (V2.0.08).
Треклист:
01 - The Gathering/Roswell'47
02 - Pleasure of Molestation
03 - Osculum Obscenum
04 - Apocalypse
05 - The Fourth Dimension (version 2001)
06 - Fire in the Sky
07 - Don't Judge Me
08 - A Public Puppet
09 - Buried
10 - Left To Rot
11 - Destroyed
12 - The Final Chapter
13 - Fractured Millenium
-Качество: DVDRip
Формат: AVI
Видео кодек: XviD
Аудио кодек: MP3
Видео: 1092 Кбит/сек; 640x480; 25 кадр/сек
Аудио: 44100hz; Stereo; 122 Kbps

Подробное качество:

Video:
ID : 0
Format : MPEG-4 Visual
Format profile : Advanced Simple@L5
Format settings, BVOP : Yes
Format settings, QPel : No
Format settings, GMC : No warppoints
Format settings, Matrix : Default (H.263)
Codec ID : XVID
Codec ID/Hint : XviD
Duration : 53mn 21s
Bit rate : 1 092 Kbps
Width : 640 pixels
Height : 480 pixels
Display aspect ratio : 4:3
Frame rate : 25.000 fps
Resolution : 8 bits
Colorimetry : 4:2:0
Scan type : Progressive
Bits/(Pixel*Frame) : 0.142
Stream size : 417 MiB (89%)
Writing library : XviD 1.1.2 (UTC 2006-11-01)
Audio:
ID : 1
Format : MPEG Audio
Format version : Version 1
Format profile : Layer 3
Mode : Joint stereo
Format_Settings_ModeExtension : MS Stereo
Codec ID : 55
Codec ID/Hint : MP3
Duration : 53mn 21s
Bit rate mode : Variable
Bit rate : 122 Kbps
Channel(s) : 2 channels
Sampling rate : 44.1 KHz
Stream size : 46.4 MiB (10%)
Alignment : Aligned on interleaves
Interleave, duration : 26 ms (0.65 video frame)
Interleave, preload duration : 219 ms
Writing library : LAME3.97

Скриншоты:





Hypocrisy - Live At Summer Breeze Festival (2002).avi.torrent 
Торрент: Зарегистрирован   [ 23-04-2012 13:19 ] · 9EB8FAF6E2F2BCDC4731981FA7761B6BCA7DA6A7

Скачать .torrent

Скачать

18 KB

Статус: проверено
Скачан: 26 раз
Размер: 468 MB
terms.php


Показать сообщения:    

Текущее время: 11-Дек 16:19

Часовой пояс: UTC + 4


Вы не можете начинать темы
Вы не можете отвечать на сообщения
Вы не можете редактировать свои сообщения
Вы не можете удалять свои сообщения
Вы не можете голосовать в опросах
Вы не можете прикреплять файлы к сообщениям
Вы можете скачивать файлы

Сайт не предоставляет электронные версии произведений, а занимается лишь коллекционированием и каталогизацией ссылок, присылаемых и публикуемых на форуме нашими читателями. Если вы являетесь правообладателем какого-либо представленного материала и не желаете, чтобы ссылка на него находилась в нашем каталоге, свяжитесь с нами, и мы незамедлительно удалим ее. Файлы для обмена на трекере предоставлены пользователями сайта, и администрация не несет ответственности за их содержание. Просьба не заливать файлы, защищенные авторскими правами, а также файлы нелегального содержания!