Metallore online

Вступить в онлайн сообщество

Объявление от Pariah: Обьявлен ежегодный конкурс ИНВАЙТОВ!!! С призами и дополнительными поощрениями

Последние сообщения

Metallore online

От: Morn Gail
29-11-2016 18:18

Откуда приходим.

От: Pariah
03-11-2016 09:42

Откуда приходим.

От: formaht
02-11-2016 20:28

Social tracker:



Статистика раздачи [Обновить пиров]
Размер:  3,02 GB   |    Зарегистрирован:  5 лет 3 месяца   |    Скачан:  53 раза

Полного источника не было: 2 месяца 13 дней

 
   
 
 
 

[Цитировать]

Metal Years: the Decline Of Western Civilization / Упадок западной цивилизации- -Страна: USA
Год: 1981-1998
Жанр: Documental
Режиссер: Penelope Spheeris
-

Metal Years. Decline Of Western Civilization

Год выпуска: 1981
Продолжительность: 01:40:48
Перевод: нет
В ролях: Black Flag, The Germs, X, Alice Bag Band, Circle Jerks, Catholic Discipline, Fear
Качество: VHSRip
Длительность: 01:40:48
Кодек: MPEG-4 Visual
Кодек/ID: DX50
Размеры изображения: 648 x 488 (4:3)
Частота кадров: 25.000 fps
Размер потока: 1.04 GiB (82%)
Битрейт: 1 474 Kbps
Библиотека кодирования: DivX 2151
Фильм, включая в себя концертные записи легендарных панк рок групп из Лос Анджелоса и интервью с участниками групп и посетителями концертов, предоставляет возможность взлянуть на субкультуру, игнорируемую музыкальной прессой того времени.

Metal Years. Decline Of Western Civilization (Part2)

Год выпуска: 1992
Продолжительность: 01:29:07
Перевод: любительский одноголосый.
В ролях: Аэросмит, Группа Кисс, Группа Моторхэд, Оззи Осборн, Лемми, Пол Стэнли, Джо Перри, Джин Симмонс, Элис Купер, Стивен Тайлер
Качество: VHSRip
Длительность: 01:29:07
Кодек: MPEG-4 Visual
Кодек/ID: DX50
Размеры изображения: 640 x 480 (4:3)
Частота кадров: 25.000 fps
Размер потока: 956 MiB (88%)
Битрейт: 1 500 Kbps
Съемки проводились с августа 1987 по февраль 1988 года. Любопытный взгляд известного американского режиссера на мир музыки "heavy metal", с которым она познакомилась, будучи в одном из ночных "металлических" клубов Лос-Анджелеса. Любители музыки увидят POISON, FASTER PUSSYCAT, LIZZY BORDEN, LONDON, ODIN, SEDUCE, MEGADETH, выступления лучших команд этого стиля. Картина будет интересна не только для любителей музыки. Режиссура интересна сама по себе.

Metal Years. Decline Of Western Civilization (Part 3)

Год выпуска: 1998
Продолжительность: 1:24:00
Перевод: нет
В ролях: Final Conflict, Litmus Green, Naked Aggression and The Resistance.
Описание:
Фильм рассказывает о жизни уличных панков, названных "панками из сточной канавы", несущих анти-социальные и экстремистские взгляды. Spheeris говорит с бездомными подростками, живущими на улице или в брошенных зданиях Лос-Анджелеса, с неблагополучной матерью, чиновником полицейского управления Лос-Анджелеса Гари Фредо, и парализованной молодежи, живущей на пособие.
Качество: VHSRip
Формат: AVI
Видео кодек: XviD
Аудио кодек: MP3
Видео: 1022 Kbp/s 560x272 29.97 fps
Аудио: English 128 Kbp/s 2ch 48.0 Khz
Metal_Years._Decline_Of_Western_Civilization.torrent 
Торрент: Зарегистрирован   [ 22-08-2011 22:43 ] · 9F2D8B63E61569F84641863B6885F62DF261CF07

Скачать .torrent

Скачать

16 KB

Статус: проверено
Скачан: 53 раз
Размер: 3,02 GB
terms.php


Последний раз редактировалось: Tristis Oris (23-11-2011 22:32), всего редактировалось 5 раз(а)


Показать сообщения:    

Текущее время: 04-Дек 00:14

Часовой пояс: UTC + 4


Вы не можете начинать темы
Вы не можете отвечать на сообщения
Вы не можете редактировать свои сообщения
Вы не можете удалять свои сообщения
Вы не можете голосовать в опросах
Вы не можете прикреплять файлы к сообщениям
Вы можете скачивать файлы

Сайт не предоставляет электронные версии произведений, а занимается лишь коллекционированием и каталогизацией ссылок, присылаемых и публикуемых на форуме нашими читателями. Если вы являетесь правообладателем какого-либо представленного материала и не желаете, чтобы ссылка на него находилась в нашем каталоге, свяжитесь с нами, и мы незамедлительно удалим ее. Файлы для обмена на трекере предоставлены пользователями сайта, и администрация не несет ответственности за их содержание. Просьба не заливать файлы, защищенные авторскими правами, а также файлы нелегального содержания!